+ ShareSpark.net »  :::: Hollywood Zone » Hollywood Movies (Original Rips) » 3D Movies
|- Coco 2017 1080p 3D BluRay Half-SBS x264 DTS 5.1 - Hon3y


Mastercard 10% Off
  • Coco 2017 1080p 3D BluRay Half-SBS x264 DTS 5.1 - Hon3y 5 1
Currently:  

Coco 2017 1080p 3D BluRay Half-SBS x264 DTS 5.1 - Hon3y

0 Members and 1 Guest are viewing this topic.

March 02, 2018, 09:35:19 PM
  • Addic7ed
  • Royal Member
  • ****
  • Topic Author
  • Thank You: 515
  • Reputation: 186
  • Activity:
    0%
  • Country: np
  • Posts: 1075
  • Topics: 702
  • Join Date: May 2017
  • #Me
Coco 2017 1080p 3D BluRay Half-SBS x264 DTS 5.1 - Hon3y



 :plot:
Source:Scene
Format                                   : Matroska
Format version                           : Version 4 / Version 2
File size                                : 4.35 GiB
Duration                                 : 1 h 45 min
Overall bit rate                         : 5 926 kb/s
Movie name                               : Coco 2017 3D - Hon3y

Video
ID                                       : 1
Format                                   : AVC
Format/Info                              : Advanced Video Codec
Format profile                           : [email protected]
Format settings                          : CABAC / 5 Ref Frames
Format settings, CABAC                   : Yes
Format settings, RefFrames               : 5 frames
Codec ID                                 : V_MPEG4/ISO/AVC
Duration                                 : 1 h 45 min
Bit rate                                 : 5 142 kb/s
Width                                    : 1 920 pixels
Height                                   : 800 pixels
Display aspect ratio                     : 2.40:1
Frame rate mode                          : Constant
Frame rate                               : 23.976 (24000/1001) FPS
Language                                 : English
Default                                  : Yes
Forced                                   : No
Color range                              : Limited
Color primaries                          : BT.709
Transfer characteristics                 : BT.709
Matrix coefficients                      : BT.709

Audio
ID                                       : 2
Format                                   : DTS
Format/Info                              : Digital Theater Systems
Codec ID                                 : A_DTS
Duration                                 : 1 h 45 min
Bit rate mode                            : Constant
Bit rate                                 : 768 kb/s
Channel(s)                               : 6 channels
Channel positions                        : Front: L C R, Side: L R, LFE
Sampling rate                            : 48.0 kHz
Frame rate                               : 93.750 FPS (512 SPF)
Bit depth                                : 24 bits
Compression mode                         : Lossy
Stream size                              : 577 MiB (13%)
Language                                 : English
Default                                  : Yes
Forced                                   : No

Text
ID                                       : 3
Format                                   : PGS
Muxing mode                              : zlib
Codec ID                                 : S_HDMV/PGS
Codec ID/Info                            : Picture based subtitle format used on BDs/HD-DVDs
Duration                                 : 1 h 34 min
Bit rate                                 : 53.6 kb/s
Count of elements                        : 2406
Stream size                              : 36.4 MiB (1%)
Title                                    : English-PGS
Language                                 : English
Default                                  : Yes
Forced                                   : No

Menu
00:00:00.000                             : en:(01)00:00:00:000
00:06:40.191                             : en:(02)00:06:40:191
00:08:41.520                             : en:(03)00:08:41:520
00:11:13.589                             : en:(04)00:11:13:589
00:14:20.317                             : en:(05)00:14:20:317
00:17:06.942                             : en:(06)00:17:06:942
00:18:20.933                             : en:(07)00:18:20:933
00:22:05.991                             : en:(08)00:22:05:991
00:24:19.958                             : en:(09)00:24:19:958
00:27:44.829                             : en:(10)00:27:44:829
00:29:07.912                             : en:(11)00:29:07:912
00:32:15.308                             : en:(12)00:32:15:308
00:35:18.407                             : en:(13)00:35:18:407
00:41:25.524                             : en:(14)00:41:25:524
00:47:04.696                             : en:(15)00:47:04:696
00:50:54.175                             : en:(16)00:50:54:175
00:54:23.885                             : en:(17)00:54:23:885
00:56:45.026                             : en:(18)00:56:45:026
01:01:42.615                             : en:(19)01:01:42:615
01:03:28.137                             : en:(20)01:03:28:137
01:08:58.217                             : en:(21)01:08:58:217
01:15:17.262                             : en:(22)01:15:17:262
01:18:56.773                             : en:(23)01:18:56:773
01:21:31.761                             : en:(24)01:21:31:761
01:24:31.816                             : en:(25)01:24:31:816
01:28:23.464                             : en:(26)01:28:23:464
01:33:14.755                             : en:(27)01:33:14:755
01:36:10.472                             : en:(28)01:36:10:472
01:45:01.753                             : en:(29)01:45:01:753


 :ss: :ss:






 :sample: :sample:


 :download: :download:

Share this topic on FacebookShare this topic on GoogleShare this topic on MySpaceShare this topic on TwitterShare this topic on Yahoo



Thanks given by:


May 09, 2018, 01:18:16 PM
Reply #1
  • Semi Newbie
  • **
  • Thank You: 0
  • Reputation: 3
  • Activity:
    0%
  • Country: in
  • Posts: 32
  • Topics: 0
  • Join Date: Apr 2018
  • ShareSpark Member

June 13, 2018, 03:27:26 PM
Reply #2
  • ***************
  • Conqueror
  • Legend Member
  • *****
  • Thank You: 1992
  • Reputation: 569
  • Activity:
    100%
  • Country: pk
  • Posts: 2333
  • Topics: 1594
  • Join Date: Mar 2015
  • =$ Success Never Ends $=

October 14, 2018, 04:41:18 PM
Reply #3
  • Senior Member
  • ***
  • Thank You: 0
  • Reputation: 41
  • Activity:
    31.4%
  • Country: in
  • Posts: 266
  • Topics: 0
  • Join Date: Oct 2016
  • ShareSpark Member

Tags: new 
 

Related Topics

  Subject / Started by Replies Last post
0 Replies
1815 Views
Last post September 30, 2016, 05:31:14 AM
by __B!RoH!_MoN__
1 Replies
1474 Views
Last post October 14, 2018, 04:42:45 PM
by MayurSuccess
2 Replies
970 Views
Last post February 09, 2018, 10:23:34 PM
by Kraj23732Kumar
0 Replies
1265 Views
Last post February 10, 2018, 02:44:05 PM
by UnikAaYush
0 Replies
214 Views
Last post December 24, 2018, 08:15:32 PM
by •●๋ Ñαтsυ ÐяαGиєєℓ™☣




Back to top