+ ShareSpark.net »  :::: Hollywood Zone » Hollywood Movies (Original Rips) » 3D Movies
|- Despicable Me 3 (2017) 3D-HSBS 1080p BluRay Eng. 6CH x264 4.4GB - SPRiNTER


10% SBI and 10% Discount

Despicable Me 3 (2017) 3D-HSBS 1080p BluRay Eng. 6CH x264 4.4GB - SPRiNTER

0 Members and 1 Guest are viewing this topic.

September 28, 2017, 01:14:39 PM
  • ♫♫♣ B૦ՐՈ T૦ H૯Նƿ ♣♫♫
  • Global Moderator
  • Legend Member
  • *****
  • Topic Author
  • Thank You: 1105
  • Reputation: 725
  • Activity:
    0%
  • Country: dk
  • Posts: 2712
  • Topics: 1192
  • Join Date: Jan 2013
  • ♠§§ Dσп'т Tαʟκ Jυƨт Acт §§ Dσп'т Sαч Jυƨт Sнσш §§♠
:title:
Despicable Me 3 (2017) 3D-HSBS 1080p BluRay Eng. 6CH x264 - SPRiNTER




:info:
Video
ID                                       : 1
Format                                   : AVC
Format/Info                              : Advanced Video Codec
Format profile                           : [email protected]
Format settings, CABAC                   : Yes
Format settings, ReFrames                : 5 frames
Codec ID                                 : V_MPEG4/ISO/AVC
Duration                                 : 1h 29mn
Bit rate                                 : 5 472 Kbps
Width                                    : 1 920 pixels
Height                                   : 808 pixels
Display aspect ratio                     : 2.40:1
Frame rate mode                          : Constant
Frame rate                               : 23.976 fps
Color space                              : YUV
Chroma subsampling                       : 4:2:0
Bit depth                                : 8 bits
Scan type                                : Progressive
Bits/(Pixel*Frame)                       : 0.147
Stream size                              : 3.42 GiB (78%)
Language                                 : English
Default                                  : Yes
Forced                                   : No

Audio
ID                                       : 2
Format                                   : DTS
Format/Info                              : Digital Theater Systems
Mode                                     : 16
Format settings, Endianness              : Big
Codec ID                                 : A_DTS
Duration                                 : 1h 29mn
Bit rate mode                            : Constant
Bit rate                                 : 1 509 Kbps
Channel(s)                               : 6 channels
Channel positions                        : Front: L C R, Side: L R, LFE
Sampling rate                            : 48.0 KHz
Frame rate                               : 93.750 fps (512 spf)
Bit depth                                : 24 bits
Compression mode                         : Lossy
Stream size                              : 968 MiB (22%)
Language                                 : English
Default                                  : Yes
Forced                                   : No


:ss:


:download:
Single Links




1GB Split Links





























Share this topic on FacebookShare this topic on GoogleShare this topic on MySpaceShare this topic on TwitterShare this topic on Yahoo

« Last Edit: September 28, 2017, 01:38:38 PM by ♥[--K4Krish--]♥ »



If U like any post, then say thanks 2 d uploader by posting in his topic, adding thanks & reputes 2 him.:)

Thanks given by:


Tags:
 

Related Topics





Back to top